PDA

Visualizza la versione completa : ffmpeg wave to (mpeg or avi) inserendo immagine fissa


GioMBG
21-05-2014, 23:26
ciao Ragazzi,
non so cosa sia successo ultimamente alla ffmpeg ma da qualche tempo/upgrade Linux non riesco più a convertire da audio wave ad .avi o .mpeg
avreste qualche esempio di come fare e cioè di inserire un'img fissa rippando da wav a mpeg o avi ?
grazie
GioMBG

sacarde
22-05-2014, 11:22
questo non va?

ffmpeg -i suono.wav -i immagine.jpg video.avi


ho versione 2.2.2

GioMBG
22-05-2014, 12:47
GRAZIE !
infatti, anche con questo comando, riesco a fare il video SOLO CHE:
su Linux con VLC non posso spostarmi con il cursore, cioè devo partire sempre dall'inizio mentre sugli altri sistemi (mac e win) vado avanti e indietro senza problemi ma il VERO PROBLEMA è che se pubblico su YouTube pur accettandomi il video e non dandomi nessun warning in proposito il video non si vede...
consigli?


ffmpeg version 1.1.5 Copyright (c) 2000-2013 the FFmpeg developers
built on Jun 5 2013 20:28:06 with gcc 4.4.7 (GCC) 20120313 (Red Hat 4.4.7-3)
configuration: --prefix=/usr --libdir=/usr/lib64 --shlibdir=/usr/lib64 --mandir=/usr/share/man --incdir=/usr/include --disable-debug --enable-shared --enable-gpl --enable-version3 --disable-avisynth --enable-swscale --enable-postproc --enable-avfilter --enable-avresample --enable-pthreads --enable-x11grab --enable-vaapi --enable-vdpau --enable-runtime-cpudetect --enable-bzlib --enable-fontconfig --enable-frei0r --enable-libass --enable-libbluray --enable-libcelt --enable-libcdio --enable-libfreetype --enable-libiec61883 --enable-libopencv --enable-libmodplug --enable-libopencore-amrnb --enable-libopencore-amrwb --enable-libdc1394 --enable-libfaac --enable-libgsm --enable-libmp3lame --enable-libopenjpeg --enable-libopus --enable-libpulse --enable-librtmp --enable-libschroedinger --enable-libspeex --disable-libsoxr --enable-libtheora --enable-libtwolame --enable-libvpx --enable-libv4l2 --enable-libx264 --enable-gnutls --enable-zlib --extra-cflags='-O2 -g -pipe -Wall -Wp,-D_FORTIFY_SOURCE=2 -fexceptions -fsta libavutil 52. 13.100 / 52. 13.100
libavcodec 54. 86.100 / 54. 86.100
libavformat 54. 59.106 / 54. 59.106
libavdevice 54. 3.102 / 54. 3.102
libavfilter 3. 32.100 / 3. 32.100
libswscale 2. 1.103 / 2. 1.103
libswresample 0. 17.102 / 0. 17.102
libpostproc 52. 2.100 / 52. 2.100


ATTENZIONE QUI MI SCRIVE QUESTO (su internet ho trovato milioni di matches senza soluzioni)

[wav @ 0x178a780] max_analyze_duration 5000000 reached at 5015510
Guessed Channel Layout for Input Stream #0.0 : stereo



Input #0, wav, from '/var/www/html/delta/Documents/9records/wave/9REC006-02.wav':
Metadata:
title : New Jack [MBG SDS Pulsar Mix]
artist : MBG SDS
IENG : Gio MBG Canepa
copyright : GioMBG 2004
comment : listen more music @ www.MBG.it and www.9Records.com (C)(P)GioMBG & DiPiu srl licensing@9records.com
Duration: 00:06:33.83, bitrate: 1411 kb/s
Stream #0:0: Audio: pcm_s16le ([1][0][0][0] / 0x0001), 44100 Hz, stereo, s16, 1411 kb/s
Input #1, image2, from '/var/www/html/delta/images/9records/catalog/9REC006-600.jpg':
Duration: 00:00:00.04, start: 0.000000, bitrate: N/A
Stream #1:0: Video: mjpeg, yuvj420p, 600x600 [SAR 150:150 DAR 1:1], 25 tbr, 25 tbn, 25 tbc
File 'output.avi' already exists. Overwrite ? [y/N] y
Output #0, avi, to 'output.avi':
Metadata:
INAM : New Jack [MBG SDS Pulsar Mix]
IART : MBG SDS
IENG : Gio MBG Canepa
ICOP : GioMBG 2004
ICMT : listen more music @ www.MBG.it and www.9Records.com (C)(P)GioMBG & DiPiu srl licensing@9records.com
ISFT : Lavf54.59.106
Stream #0:0: Video: mpeg4 (FMP4 / 0x34504D46), yuv420p, 600x600 [SAR 1:1 DAR 1:1], q=2-31, 200 kb/s, 25 tbn, 25 tbc
Stream #0:1: Audio: mp3 (U[0][0][0] / 0x0055), 44100 Hz, stereo, s16p
Stream mapping:
Stream #1:0 -> #0:0 (mjpeg -> mpeg4)
Stream #0:0 -> #0:1 (pcm_s16le -> libmp3lame)
Press [q] to stop, [?] for help
frame= 1 fps=0.0 q=6.1 Lsize= 6543kB time=00:06:33.84 bitrate= 136.1kbits/s
video:25kB audio:6154kB subtitle:0 global headers:0kB muxing overhead 5.890206%

cosa posso fare ?
Gio

Loading